× Если вы хотите поддержать сервис Dislikemeter, теперь это можно сделать с помощью сервиса Patreon https://www.patreon.com/user?u=12519677

dislikemeter.com

измерение количества лайков, дизлайков, просмотров, комментариев

Клик на название графика включает/выключает его. "-Дельта" - графики скорости изменения, единиц в минуту.

Описание видео

Опубликовано: 23-02-2021 01:34:41
                Перед 25-ою серією м/с "Чіп і Дейл".

Взято з ex.ua.

Характеристики відео і звуку:
D:\vlc-record-2016-12-18-02h08m29s-1PLUS1 - M_c _Чіп і Дейл_25.ts-.ts
  General #1
    ID : 1 (0x1)
    Complete name : D:\vlc-record-2016-12-18-02h08m29s-1PLUS1 - M_c _Чіп і Дейл_25.ts-.ts
    Format : MPEG-TS
    File size : 128 MiB
    Duration : 3mn 30s
    Overall bit rate : 5 078 Kbps
  Video #769
    ID : 769 (0x301)
    Menu ID : 3 (0x3)
    Format : MPEG Video
    Format version : Version 2
    Format profile : Main@Main
    Format settings, BVOP : Yes
    Format settings, Matrix : Custom
    Format settings, GOP : M=3, N=24
    Codec ID : 2
    Duration : 3mn 30s
    Bit rate : 4 569 Kbps
    Maximum bit rate : 4 636 Kbps, 5,2 Mbit
    Width : 720 pixels
    Height : 576 pixels
    Display aspect ratio : 4:3
    Frame rate : 25.000 fps
    Standard : PAL
    Color space : YUV
    Chroma subsampling : 4:2:0
    Bit depth : 8 bits
    Scan type : Interlaced
    Scan order : Top Field First
    Compression mode : Lossy
    Bits/(Pixel*Frame) : 0.441
    Stream size : 115 MiB (90%)
  Audio #770
    ID : 770 (0x302)
    Menu ID : 3 (0x3)
    Format : MPEG Audio
    Format version : Version 1
    Format profile : Layer 2
    Codec ID : 3
    Duration : 3mn 30s
    Bit rate mode : Constant
    Bit rate : 256 Kbps
    Channel(s) : 2 channels (фактично там моно)
    Sampling rate : 48.0 KHz
    Compression mode : Lossy
    Delay relative to video : -218ms
    Stream size : 6.43 MiB (5%)
  Menu #768
    ID : 768 (0x300)
    Menu ID : 3 (0x3)
    Duration : 3mn 30s
    List : 769 (0x301) (MPEG Video) / 770 (0x302) (MPEG Audio)
    Maximum bit rate : 5700000
            

Теги

Канал

Видео

0

Другие видео канала

comments powered by HyperComments